Login
Username:
Password:
Remember Me:
[Signup]
[Recover Account]
Friends
BTScene
Friendly site

Free Courses Online
Friendly site

Anime RG
Friendly site

KaranPC
Friendly site

P2PDL.com
Friendly site

Free Tutorials & Courses
Friendly site
Torrent Details For "Mission Impossible Fallout 2018 1080p HC HDRip x264 Dual Audio [Hindi - English] ESub..."

Mission Impossible Fallout 2018 1080p HC HDRip x264 Dual Audio [Hindi - English] ESub...

To download this torrent, you need a BitTorrent client: Vuze or BTGuard
Download this torrent
Download using Magnet Link





Health:
Seeds: 2,141
Leechers: 2,436
Completed: 7,473 
Last Checked: 14-09-2018 07:04:03

Uploader Reputation points : 4436
External: Torrent



BTGuard - BitTorrent Anonymously


Write a Review for the Uploader:   20   Say Thanks with one good review:


Details
Name:Mission Impossible Fallout 2018 1080p HC HDRip x264 Dual Audio [Hindi - English] ESub...
Description:




Mission Impossible Fallout 2018 1080p HC HDRip x264 Dual Audio [Hindi - English] ESub [MW]

General
Format : Matroska
Format version : Version 4 / Version 2
File size : 2.30 GiB
Duration : 2 h 27 min
Overall bit rate : 2 238 kb/s

Video
ID : 1
Format : AVC
Format/Info : Advanced Video Codec
Format profile : [email protected]
Format settings : CABAC / 4 Ref Frames
Format settings, CABAC : Yes
Format settings, RefFrames : 4 frames
Codec ID : V_MPEG4/ISO/AVC
Duration : 2 h 27 min
Bit rate : 2 000 kb/s
Width : 1 920 pixels
Height : 800 pixels
Display aspect ratio : 2.40:1
Frame rate mode : Constant
Frame rate : 29.970 (30000/1001) FPS
Color space : YUV
Chroma subsampling : 4:2:0
Bit depth : 8 bits
Scan type : Progressive
Bits/(Pixel*Frame) : 0.043
Stream size : 2.04 GiB (88%)
Writing library : x264 core 155 r2901 7d0ff22
Default : Yes
Forced : No

Audio #1
ID : 2
Format : AAC
Format/Info : Advanced Audio Codec
Format profile : LC
Codec ID : A_AAC-2
Duration : 2 h 27 min
Bit rate : 128 kb/s
Channel(s) : 2 channels
Channel positions : Front: L R
Sampling rate : 48.0 kHz
Frame rate : 46.875 FPS (1024 SPF)
Compression mode : Lossy
Stream size : 135 MiB (6%)
Language : Hindi
Default : Yes
Forced : No

Audio #2
ID : 3
Format : AAC
Format/Info : Advanced Audio Codec
Format profile : LC
Codec ID : A_AAC-2
Duration : 2 h 27 min
Bit rate : 128 kb/s
Channel(s) : 2 channels
Channel positions : Front: L R
Sampling rate : 48.0 kHz
Frame rate : 46.875 FPS (1024 SPF)
Compression mode : Lossy
Stream size : 135 MiB (6%)
Language : English
Default : No
Forced : No

Text
ID : 4
Format : UTF-8
Codec ID : S_TEXT/UTF8
Codec ID/Info : UTF-8 Plain Text
Duration : 2 h 19 min
Bit rate : 47 b/s
Count of elements : 1249
Stream size : 48.4 KiB (0%)
Language : English
Default : Yes
Forced : No


http://pichub.site/image/Eakv9
http://pichub.site/image/Eackd
http://pichub.site/image/EaCDR
http://pichub.site/image/EawHu
http://pichub.site/image/EainB
http://pichub.site/image/Eahgs

YouTube Video:
Category:Movies
Language:Hindi  Hindi
Total Size:2.30 GB
Info Hash:420290C92DE8956EF1CBA50077DF301D816F57D5
Added By:MovieFreak Verified UploaderMovie Pirate
Date Added:13-09-2018 12:30:53
Torrent Status:Torrent Verified


Ratings:Not Yet Rated (Log in to rate it)


Tracker:
udp://tracker.coppersurfer.tk:6969/announce

This Torrent also has backup trackers
URLSeedersLeechersCompleted
udp://tracker.coppersurfer.tk:6969/announce173205581
udp://tracker.pirateparty.gr:6969/announce173205581
udp://tracker.coppersurfer.tk:6969/announce173205581
udp://tracker.leechers-paradise.org:6969/announce163167632
udp://eddie4.nl:6969/announce163167632
udp://tracker.tiny-vps.com:6969/announce141180484
udp://9.rarbg.me:2800/announce156157725
udp://9.rarbg.to:2720/announce156157725
udp://public.popcorn-tracker.org:6969/announce114149269
udp://open.stealth.si:80/announce121156342
udp://tracker.vanitycore.co:6969/announce106135196
udp://tracker.opentrackr.org:1337/announce176223461
udp://bt.firebit.co.uk:6969/announce163165632
udp://shadowshq.yi.org:6969/announce163165632


File List: 



Warning! Do not Download Torrents Without a VPN!
Your IP Address is .   Location is
Your Internet Provider and Government can track your torrent Activity! Hide your IP ADDRESS with a VPN!
We strongly recommend using SpyOFF VPN to anonymize your Torrenting.It's FREE!
START YOUR FREE TRIAL NOW!


Comments
No comments still posted