Login
Username:
Password:
Remember Me:
[Signup]
[Recover Account]
Friends
BTScene
Friendly site

Free Courses Online
Friendly site

Anime RG
Friendly site

KaranPC
Friendly site

P2PDL.com
Friendly site

Free Tutorials & Courses
Friendly site
Torrent Details For "Peppermint 2018 720p HDTS x264 [MW]"

Peppermint 2018 720p HDTS x264 [MW]

To download this torrent, you need a BitTorrent client: Vuze or BTGuard
Download this torrent
Download using Magnet Link





Health:
Seeds: 2,955
Leechers: 2,063
Completed: 12,764 
Last Checked: 13-09-2018 12:21:35

Uploader Reputation points : 4436
External: Torrent



BTGuard - BitTorrent Anonymously


Write a Review for the Uploader:   20   Say Thanks with one good review:


Details
Name:Peppermint 2018 720p HDTS x264 [MW]
Description:




General
Format                                   : Matroska
Format version                           : Version 4 / Version 2
File size                                : 1.17 GiB
Duration                                 : 1 h 37 min
Overall bit rate                         : 1 717 kb/s

Video
ID                                       : 1
Format                                   : AVC
Format/Info                              : Advanced Video Codec
Format profile                           : [email protected]
Format settings                          : CABAC / 4 Ref Frames
Format settings, CABAC                   : Yes
Format settings, RefFrames               : 4 frames
Codec ID                                 : V_MPEG4/ISO/AVC
Duration                                 : 1 h 37 min
Bit rate                                 : 1 500 kb/s
Width                                    : 1 280 pixels
Height                                   : 522 pixels
Display aspect ratio                     : 2.452
Frame rate mode                          : Constant
Frame rate                               : 29.970 (30000/1001) FPS
Color space                              : YUV
Chroma subsampling                       : 4:2:0
Bit depth                                : 8 bits
Scan type                                : Progressive
Bits/(Pixel*Frame)                       : 0.075
Stream size                              : 1.01 GiB (87%)
Writing library                          : x264 core 155 r2901 7d0ff22
Default                                  : Yes
Forced                                   : No

Audio
ID                                       : 2
Format                                   : AAC
Format/Info                              : Advanced Audio Codec
Format profile                           : LC
Codec ID                                 : A_AAC-2
Duration                                 : 1 h 37 min
Bit rate                                 : 224 kb/s
Channel(s)                               : 2 channels
Channel positions                        : Front: L R
Sampling rate                            : 48.0 kHz
Frame rate                               : 46.875 FPS (1024 SPF)
Compression mode                         : Lossy
Stream size                              : 156 MiB (13%)
Language                                 : English
Default                                  : Yes
Forced                                   : No


http://pichub.site/image/DeTlX
http://pichub.site/image/DebL5
http://pichub.site/image/DeWCJ
http://pichub.site/image/DeeQh
http://pichub.site/image/Deqdj
http://pichub.site/image/Dj4Gr

YouTube Video:
Category:Movies
Language:English  English
Total Size:1.17 GB
Info Hash:31F9621B63300FABAFD3A6220384AA07D6C7BF3D
Added By:MovieFreak Verified UploaderMovie Pirate
Date Added:12-09-2018 18:12:26
Torrent Status:Torrent Verified


Ratings:Not Yet Rated (Log in to rate it)


Tracker:
udp://tracker.coppersurfer.tk:6969/announce

This Torrent also has backup trackers
URLSeedersLeechersCompleted
udp://tracker.coppersurfer.tk:6969/announce2631731,181
udp://tracker.pirateparty.gr:6969/announce2631731,181
udp://tracker.coppersurfer.tk:6969/announce2631731,181
udp://tracker.leechers-paradise.org:6969/announce2501641,091
udp://eddie4.nl:6969/announce2501641,091
udp://tracker.tiny-vps.com:6969/announce161123392
udp://9.rarbg.me:2800/announce1661311,283
udp://9.rarbg.to:2720/announce1661311,283
udp://public.popcorn-tracker.org:6969/announce173123515
udp://open.stealth.si:80/announce157122386
udp://tracker.vanitycore.co:6969/announce167124518
udp://tracker.opentrackr.org:1337/announce176134480
udp://bt.firebit.co.uk:6969/announce2501641,091
udp://shadowshq.yi.org:6969/announce2501641,091


File List: 



Warning! Do not Download Torrents Without a VPN!
Your IP Address is .   Location is
Your Internet Provider and Government can track your torrent Activity! Hide your IP ADDRESS with a VPN!
We strongly recommend using SpyOFF VPN to anonymize your Torrenting.It's FREE!
START YOUR FREE TRIAL NOW!


Comments
No comments still posted